Skip to main content

ted quinn Live at Beatnik Cafe on 2002-11-16

Audio Preview

etree
ted quinn Live at Beatnik Cafe on 2002-11-16




1. Like A Baby
2. Pilgrim
3. La Porte, Indiana
4. Now Is The Moment Of Power
5. High Price Of Oil
6. Sky Cathedral
7. Going To Mecca
8. Don't / Shoot
9. If U Do
10. Passion Slaves
11. Emmeline
12. Stray Arrow
13. Wild West Ballet
14. I Dream Of Sleeping (Peacefully)
15. Billions & Billions


Collection TedQuinn
Band/Artist ted quinn
Venue Beatnik Cafe
Location Joshua Tree, CA

Source Direct to CD
Lineage CD > iTunes 7 > aiff > xACT 1.58 > flac (level 6)
Taped by Bill Bizeau
Transferred by morst

Notes

Teddy Quinn
November 16, 2002
Beatnik Cafe
Joshua Tree CA

"Feed The Person Next To You" - ted quinn songbook 1
Joshua Tree musicians play songs of ted quinn
Fred Drake (1958-2002) In loving memory

Recorded direct to CD by Bill Bizeau
Mastered by Ted Quinn
Produced by Elia Arce

Like A Baby- Fred Drake (T. Quinn / M. Hayde) * Recorded by Fred Drake at Dominion Sound - Hollywood CA 1986
Pilgrim- Amanda Coleman (T. Quinn / T. Mason)
La Porte, Indiana- Joe Fairbanks (T. Quinn)
Now Is The Moment Of Power- Lanie (T. Quinn)
High Price Of Oil- Adriene Jenik (T. Quinn / T. Mason)
Sky Cathedral- Elbi & Tibi (T. Quinn)
Going To Mecca- Ruben Martinez (T. Quinn / T. Mason)
Don't / Shoot- Sue Bradley (T. Quinn)
If U Do- Tal Hurley (T. Quinn)
Passion Slaves- Tirzah Mueller (T. Quinn / T. Mason)
Emmeline- Robert Allen Floyd (T. Quinn / F. Drake)
Stray Arrow- Tony Mason (T. Quinn / J. Vargas)
Wild West Ballet- Joe City Garcia (T. Quinn / J. Garcia)
I Dream Of Sleeping (Peacefully)- Elia Arce (T. Quinn)
Billions & Billions- Bob Forrest (T. Quinn)



shntool results:
length expanded size cdr WAVE problems filename
3:12.47 33979388 --- -- ---xx tq2002-11-16t01.flac
1:48.36 19135916 --- -- ---xx tq2002-11-16t02.flac
5:20.72 56617388 --- -- ---xx tq2002-11-16t03.flac
3:05.74 32808092 --- -- ---xx tq2002-11-16t04.flac
4:20.03 45871100 --- -- ---xx tq2002-11-16t05.flac
3:18.60 35068364 --- -- ---xx tq2002-11-16t06.flac
3:03.18 32323580 --- -- ---xx tq2002-11-16t07.flac
3:45.47 39800588 --- -- ---xx tq2002-11-16t08.flac
3:47.27 40106348 --- -- ---xx tq2002-11-16t09.flac
5:28.48 57972140 --- -- ---xx tq2002-11-16t10.flac
2:48.20 29682284 --- -- ---xx tq2002-11-16t11.flac
3:16.66 34729676 --- -- ---xx tq2002-11-16t12.flac
4:27.58 47235260 --- -- ---xx tq2002-11-16t13.flac
7:29.14 79236572 --- -- ---xx tq2002-11-16t14.flac
9:10.45 97125884 --- -- ---xx tq2002-11-16t15.flac
64:24.35 681692580 B (totals for 15 files, 0.5758 overall compression ratio)

-=-=-=-=-=-=-=-=-=-=-=-=-=-=-=-=-=-=-=-=-=-=-=-=-=-=-=-=-=-=-=-=-=-=-
This recording brought to you by the Soundscape Preservation Society
Founded 1991
http://www.iamtypingwithonefinger.com/SPS.html
-=-=-=-=-=-=-=-=-=-=-=-=-=-=-=-=-=-=-=-=-=-=-=-=-=-=-=-=-=-=-=-=-=-=-

comment
Reviews

Reviewer: morst - favoritefavoritefavoritefavoritefavorite - October 11, 2006
Subject: Great sound, Great performances, Great songs!
Thanks to teddy q for making this one available! His songs are great when he plays 'em, but they really come alive with different people playing them. I still like Billions and Billions best!!!

Five BIG stars!!!!! *****
DOWNLOAD OPTIONS
In Collection
ted quinn
In Collection
Live Music Archive
Uploaded by
morst
on 10/11/2006
Views
5,411
Favorites
1
Reviews
1
SIMILAR ITEMS (based on metadata)
ted quinn
etree
eye 140
favorite 1
comment 0
Source: SBD + AUD mix
ted quinn
etree
eye 286
favorite 1
comment 0
Source: DAUD
ted quinn
collection
6
ITEMS
10,998
VIEWS
by ted quinn
collection
eye 10,998
Howe Gelb
by Howe Gelb
etree
eye 1,813
favorite 1
comment 2
favoritefavoritefavoritefavoritefavorite ( 2 reviews )
Source: Rode NT-5 (on mic stand, 7 feet) > Hitec Audio Pre Mobile 2 > Edirol R-1 > WAV
Domestic Problems
by Domestic Problems
etree
eye 1,464
favorite 0
comment 1
favoritefavoritefavoritefavoritefavorite ( 1 reviews )
Source: DAUD
Conehead Buddha
by Conehead Buddha
etree
eye 105
favorite 0
comment 0
Source: Source: Audience/Mics Unknown > Analog Master
Domestic Problems
by Domestic Problems
etree
eye 1,372
favorite 0
comment 1
favoritefavoritefavoritefavorite ( 1 reviews )
Source: DAUD
Soundsation
by Soundsation
etree
eye 291
favorite 0
comment 0
Source: SBD (Zoom R16) > .wav
Meat Puppets
by Meat Puppets
etree
eye 47
favorite 0
comment 0
Ryan Adams
by Ryan Adams
etree
eye 4,996
favorite 2
comment 1
favoritefavoritefavoritefavorite ( 1 reviews )
Source: SBD > DAT